0d59577b69779efe481722d0052396e3 [12-16] 绿巨人二部曲(国英双语) Hulk.I.II.BluRay.720p.x264.AC3-WOFEI 中英字幕 - 快车资源发布区 - 老鸟家园 -飞鸟娱乐,最新电影下载,高清电影下载,百度网盘资源下载,高清RMVB电影下载
返回列表 发帖

[高清MKV电影] [12-16] 绿巨人二部曲(国英双语) Hulk.I.II.BluRay.720p.x264.AC3-WOFEI 中英字幕


◎译  名 绿巨人(中)/浩克绿巨人/绿巨人浩克(台)/变形侠医(港)/变型侠医
◎片  名 The Hulk
◎年  代 2003
◎国  家 美国
◎类  别 动作/科幻
◎语  言 英语/普通话
◎字  幕 中英字幕/中文字幕/英中字幕/英文字幕

◎文件格式 x264+AC3
◎视频尺寸 1280 x 688
◎文件大小 1CD  3.1G
◎片  长 02:18:05
◎导  演 李安 Ang Lee
◎主  演 珍妮弗·康纳利 Jennifer Connelly .... Betty Ross
      山姆·艾略特 Sam Elliott .... Ross
      尼克·诺特 Nick Nolte .... Father
      Lou Ferrigno .... Security Guard
      Mark Atteberry .... Technician
      艾里克·巴纳 Eric Bana .... Bruce Banner
      Cara Buono .... Edith Banner
      Eva Burkley .... Technician
      Lorenzo Callender .... Soldier
      Jesse Corti .... Colonel
      Daniel Dae Kim .... Aide
      Craig Damon .... Security Guard
      Regi Davis .... Security Guard
      保罗·柯西 Paul Kersey .... Young David Banner
      David Kronenberg .... Bruce Banner as Child
◎简  介 
剧情简介:
  布鲁斯·班纳是一位极具天赋的物理学家,他奉命进行一项改变人类细胞的机密军事实验。虽然班纳在这个领域取得了突出的成绩,但主管秘密军事实验的罗斯将军,却总是对班纳的研究成果嗤之以鼻。而班纳的女助手同时也是罗斯将军女儿的贝蒂·萝丝却和班纳产生了感情,一心扑在研究上的班纳沉浸于爱情的甜蜜中。
  在一次实验中,不幸发生了大爆炸。受到过量伽玛射线辐射的班纳也因此而产生了恐怖的异变:只要他发怒,身体就会迅速膨胀成一个巨大的绿色怪人。班纳被迫遭到隔离并严加看管,但是逐渐强大的他已经变得越来越难以控制,仿佛心里有一头野兽要挣脱出来。
  最终,在恐惧的不断侵袭和射线的刺激诱导下,班纳还是没能抵挡住那股邪恶力量的暴发,心中的怪兽战胜了人类的情感——他变成了一个无比强大的绿巨人。在实验蒙受巨大损失后,主管秘密研究的罗斯将军愤怒了,他发誓要将这绿色怪物亲手摧毁。而深爱班纳的贝蒂更认为自己对这场可怕的意外负有不可推卸的责任,无法就此放手的她决心和班纳并肩奋战到底。已经变身成绿色巨人的班纳,面对几乎所有人类的敌意和贝蒂一人的真爱,决定拿出异于常人的勇气去迎战一切威胁……
影评 & 幕后:
  “绿巨人”是漫画大师史丹·李(Stan Lee)所创造的经典漫画人物,对于着名的惊奇Marvel漫画公司来说,“绿巨人”绝对是他们的看家宝之一,也是与《超人》、《X战警》、《蜘蛛侠》等并列的超级漫画英雄。在洛杉矶的环球影城以及环球公司许多相关的主题乐园中,“绿巨人”都是最受游览者欢迎的人物形象。早在1970年代,就被多次被搬上电视荧屏。在漫画原着,和最初的电视改编剧集中,绿巨人原名《不可思议的绿巨人》(Incredible Hulk)。而在电影的标题中,“不可思议的”几个字被去掉了,改名为更加简练上口的《绿巨人》。
  虽然改了名字,不过观众和漫画迷们并不需要担心在今年的《绿巨人》中看不到原着的影子。尽管环球公司延揽到李安参加影片的导演工作后,李安就执意重头改写剧本。但李安同时也表示,自己绝对会忠于漫画的基本精神和故事结构,甚至可以说《绿巨人》的电影版,将比以往的任何一部漫画改编电影作品更加忠于原着。
《绿巨人》是李安继勇夺奥斯卡最佳外语片的《卧虎藏龙》之后,改弦易辙,目光转向科幻类题材,在好莱坞推出的第一部新作,也是他迄今执导的规格最高的片子。李安为该片倾注了全部心血,不但为了接拍此片放弃了华纳今夏大片《终结者3》的邀请,在开机后,为了全力投入拍摄工作,甘愿放弃参加今年的奥斯卡颁奖礼的机会。而且听闻在李安接下《绿巨人》后,便立刻抛开环球事先准备的、由《黄金眼》的黄金编剧——迈克尔·佛朗斯(Michael France)筹备多年的脚本,决定自己重头开始,这份气魄实在令人佩服
D:\rmvb资源\[高清MKV收藏www.hdbird.com]\老鸟家园(bbs.hd62.com).绿巨人二部曲.720P.中英字幕\绿巨人(国英双语) Hulk.2003.BluRay.720p.x264.AC3-WOFEI.mkv
   General
      Complete name : D:\rmvb资源\[高清MKV收藏www.hdbird.com]\老鸟家园(bbs.hd62.com).绿巨人二部曲.720P.中英字幕\绿巨人(国英双语) Hulk.2003.BluRay.720p.x264.AC3-WOFEI.mkv
      Format : Matroska
      File size : 3.11 GiB
      Duration : 2h 18mn
      Overall bit rate : 3 216 Kbps
      Encoded date : UTC 2009-12-15 08:39:22
      Writing application : mkvmerge v2.4.0 ('Fumbling Towards Ecstasy') built on Oct 11 2008 20:13:15
      Writing library : libebml v0.7.7 + libmatroska v0.8.1
   Video #1
      ID : 1
      Format : AVC
      Format/Info : Advanced Video Codec
      Format profile : High@L4.1
      Format settings, CABAC : Yes
      Format settings, ReFrames : 4 frames
      Muxing mode : Container profile=Unknown@4.1
      Codec ID : V_MPEG4/ISO/AVC
      Duration : 2h 18mn
      Bit rate : 2 320 Kbps
      Nominal bit rate : 2 381 Kbps
      Width : 1 280 pixels
      Height : 688 pixels
      Display aspect ratio : 1.860
      Frame rate : 23.976 fps
      Resolution : 24 bits
      Colorimetry : 4:2:0
      Scan type : Progressive
      Bits/(Pixel*Frame) : 0.110
      Stream size : 2.24 GiB (72%)
      Writing library : x264 core 68 r1183M f21daff
      Encoding settings : cabac=1 / ref=4 / deblock=1:-1:-1 / analyse=0x3:0x113 / me=umh / subme=7 / psy_rd=1.0:0.0 / mixed_ref=1 / me_range=16 / chroma_me=1 / trellis=2 / 8x8dct=1 / cqm=0 / deadzone=21,11 / chroma_qp_offset=-2 / threads=6 / nr=0 / decimate=1 / mbaff=0 / bframes=3 / b_pyramid=0 / b_adapt=1 / b_bias=0 / direct=3 / wpredb=1 / keyint=250 / keyint_min=25 / scenecut=40 / rc=2pass / bitrate=2381 / ratetol=1.0 / qcomp=0.60 / qpmin=10 / qpmax=51 / qpstep=4 / cplxblur=20.0 / qblur=0.5 / vbv_maxrate=50000 / vbv_bufsize=50000 / ip_ratio=1.40 / pb_ratio=1.30 / aq=1:1.00
      Language : English
   Audio #2
      ID : 2
      Format : AC-3
      Format/Info : Audio Coding 3
      Codec ID : A_AC3
      Duration : 2h 18mn
      Bit rate mode : Constant
      Bit rate : 448 Kbps
      Channel(s) : 6 channels
      Channel positions : Front: L C R, Surround: L R, LFE
      Sampling rate : 48.0 KHz
      Stream size : 443 MiB (14%)
      Title : 英语原声
   Audio #3
      ID : 3
      Format : AC-3
      Format/Info : Audio Coding 3
      Codec ID : A_AC3
      Duration : 2h 18mn
      Bit rate mode : Constant
      Bit rate : 384 Kbps
      Channel(s) : 6 channels
      Channel positions : Front: L C R, Surround: L R, LFE
      Sampling rate : 48.0 KHz
      Stream size : 380 MiB (12%)
      Title : 国语配音
   Text #4
      ID : 4
      Format : SSA
      Codec ID : S_TEXT/SSA
      Codec ID/Info : Sub Station Alpha
      Title : 中英字幕
   Text #5
      ID : 5
      Format : SSA
      Codec ID : S_TEXT/SSA
      Codec ID/Info : Sub Station Alpha
      Title : 英中字幕
   Text #6
      ID : 6
      Format : SSA
      Codec ID : S_TEXT/SSA
      Codec ID/Info : Sub Station Alpha
      Title : 中文字幕
   Text #7
      ID : 7
      Format : SSA
      Codec ID : S_TEXT/SSA
      Codec ID/Info : Sub Station Alpha
      Title : 英文字幕




◎译  名 神奇绿巨人/无敌浩克
◎片  名 The Incredible Hulk
◎年  代 2008
◎国  家 美国
◎类  别 动作/科幻/惊悚
◎语  言 英语/普通话
◎字  幕 中英字幕/中文字幕/英中字幕/英文字幕

◎IMDB评分 7.4/10   47,458 votes
◎IMDB链接 http://www.imdb.com/title/tt0800080
◎文件格式 x264+AC3
◎视频尺寸 1280 x 720
◎文件大小 1CD  2.35G
◎片  长 114 mins
◎导  演 路易斯·莱特里尔Louis Leterrier
◎主  演 爱德华·诺顿 Edward Norton .....Bruce Banner
      蒂姆·罗斯 Tim Roth .....Emil Blonsky
      丽芙·泰勒 Liv Tyler .....Betty Ross
      威廉·赫特 William Hurt .....Gen. Thaddeus 'Thunderbolt' Ross
      蒂姆·布雷克·尼尔森 Tim Blake Nelson .....Samuel Sterns
      Christina Cabot
      小罗伯特·唐尼 Robert Downey Jr. .....Tony Stark
      Peter Mensah .....General Sam Greller
      泰·布利尔 Ty Burrell .....Dr. Samson
      Lou Ferrigno
      Jay Hunter .....Officer Hamilton
      斯坦·李 Stan Lee
      Chris Owens .....Delta Force Commando #2
      Dylan Taylor .....Keg Guy
      Greg Bryk .....Commando #1

◎简  介 

鉴于台前幕后的全盘大洗牌,《神奇绿巨人》掀起的自然是那个漫画史上最受欢迎的超级英雄的一次全新的历险故事,除了一如既往的惊天动地的爆炸场面和让人眼花缭乱的动作格斗,影片与2003年的《绿巨人浩克》并不具备什么必然的联系。

  作为一个全新的开始,因受到辐射而基因变异的科学家布鲁斯·班纳,仍然在想尽办法寻找能够治愈他那被毒害了的细胞的方法,布鲁斯愤怒的时候,放肆的暴力倾向会让他的身体机能迅速蠕动,变成一个力大无穷、像小山一样高的绿色巨人,可是他不想这样,即使他能够得到神奇的超能力,却宁可过回普通的平淡生活。

  为了躲避美国军方的追捕,布鲁斯只好把自己藏在隐蔽的地方,与以前的生活、包括他心爱的女人贝蒂·罗斯完全切断了联系,而紧随在他之后的,正是贝蒂的父亲--撒迪厄斯·罗斯将军,这个冷酷的战争机器想要抓住布鲁斯,就是为了研究他身体里产生的异变,然后将这种力量据为己用。

  随着故事的发展,“绿巨人”为什么会出现的谜底也渐渐浮出了水面,同样的基因经过复制后,另一个变异人“憎恨”被制造出来了,同样破坏力惊人,却是一个令人讨厌的畸形怪物,将会是“绿巨人”需要对抗的最有威胁性的敌人……与此同时,布鲁斯还必须得做出一个让人苦恼的最终选择:是重新当回普通的科学家?还是继续背负着那个一直隐藏在他内心深处的绿色生物,以求寻找到真正勇敢与侠气并重的英雄气节?

D:\rmvb资源\[高清MKV收藏www.hdbird.com]\老鸟家园(bbs.hd62.com).绿巨人二部曲.720P.中英字幕\神奇绿巨人(国英双语) The.Incredible.Hulk.2008.BluRay.720p.x264.AC3-WOFEI.mkv
   General
      Complete name : D:\rmvb资源\[高清MKV收藏www.hdbird.com]\老鸟家园(bbs.hd62.com).绿巨人二部曲.720P.中英字幕\神奇绿巨人(国英双语) The.Incredible.Hulk.2008.BluRay.720p.x264.AC3-WOFEI.mkv
      Format : Matroska
      File size : 2.35 GiB
      Duration : 1h 52mn
      Overall bit rate : 2 998 Kbps
      Encoded date : UTC 2009-12-15 08:31:40
      Writing application : mkvmerge v2.4.0 ('Fumbling Towards Ecstasy') built on Oct 11 2008 20:13:15
      Writing library : libebml v0.7.7 + libmatroska v0.8.1
   Video #1
      ID : 1
      Format : AVC
      Format/Info : Advanced Video Codec
      Format profile : High@L4.1
      Format settings, CABAC : Yes
      Format settings, ReFrames : 4 frames
      Muxing mode : Container profile=Unknown@4.1
      Codec ID : V_MPEG4/ISO/AVC
      Duration : 1h 52mn
      Bit rate : 2 106 Kbps
      Nominal bit rate : 2 162 Kbps
      Width : 1 280 pixels
      Height : 720 pixels
      Display aspect ratio : 16:9
      Frame rate : 23.976 fps
      Resolution : 24 bits
      Colorimetry : 4:2:0
      Scan type : Progressive
      Bits/(Pixel*Frame) : 0.095
      Stream size : 1.65 GiB (70%)
      Writing library : x264 core 68 r1183M f21daff
      Encoding settings : cabac=1 / ref=4 / deblock=1:-1:-1 / analyse=0x3:0x113 / me=umh / subme=7 / psy_rd=1.0:0.0 / mixed_ref=1 / me_range=16 / chroma_me=1 / trellis=2 / 8x8dct=1 / cqm=0 / deadzone=21,11 / chroma_qp_offset=-2 / threads=6 / nr=0 / decimate=1 / mbaff=0 / bframes=3 / b_pyramid=0 / b_adapt=1 / b_bias=0 / direct=3 / wpredb=1 / keyint=250 / keyint_min=25 / scenecut=40 / rc=2pass / bitrate=2162 / ratetol=1.0 / qcomp=0.60 / qpmin=10 / qpmax=51 / qpstep=4 / cplxblur=20.0 / qblur=0.5 / vbv_maxrate=50000 / vbv_bufsize=50000 / ip_ratio=1.40 / pb_ratio=1.30 / aq=1:1.00
      Language : English
   Audio #2
      ID : 2
      Format : AC-3
      Format/Info : Audio Coding 3
      Codec ID : A_AC3
      Duration : 1h 52mn
      Bit rate mode : Constant
      Bit rate : 448 Kbps
      Channel(s) : 6 channels
      Channel positions : Front: L C R, Surround: L R, LFE
      Sampling rate : 48.0 KHz
      Stream size : 360 MiB (15%)
      Title : 英语原声
   Audio #3
      ID : 3
      Format : AC-3
      Format/Info : Audio Coding 3
      Codec ID : A_AC3
      Duration : 1h 52mn
      Bit rate mode : Constant
      Bit rate : 384 Kbps
      Channel(s) : 6 channels
      Channel positions : Front: L C R, Surround: L R, LFE
      Sampling rate : 48.0 KHz
      Stream size : 309 MiB (13%)
      Title : 国语配音
   Text #4
      ID : 4
      Format : SSA
      Codec ID : S_TEXT/SSA
      Codec ID/Info : Sub Station Alpha
      Title : 中英字幕
   Text #5
      ID : 5
      Format : SSA
      Codec ID : S_TEXT/SSA
      Codec ID/Info : Sub Station Alpha
      Title : 英中字幕
   Text #6
      ID : 6
      Format : SSA
      Codec ID : S_TEXT/SSA
      Codec ID/Info : Sub Station Alpha
      Title : 中文字幕
   Text #7
      ID : 7
      Format : SSA
      Codec ID : S_TEXT/SSA
      Codec ID/Info : Sub Station Alpha
      Title : 英文字幕




分享到: 新浪微博新浪微博 QQ空间QQ空间 腾讯微博腾讯微博 腾讯朋友腾讯朋友

高中看过第一部,谢谢楼主分享。

TOP

科幻动作 不错
君 当如兰 幽谷长风 宁静致远

TOP

谢谢楼主分享,科幻动作

TOP

诺顿  偶像啊
我就像一只趴在玻璃上的苍蝇,前途一片光明,而我却找不到出路......

TOP

哈哈哈哈哈哈哈哈
爱拼才会赢!

TOP

123456

TOP

感谢楼主

TOP

谢谢楼主分享

TOP

124dsf

TOP

返回列表